Latest Movie :
Home » » [Mini-HD] The One Warrior (2011) /ศึกเจ้านักรบผ่าพลังยึดโลก [720p][เสียงอังกฤษ - ไทย][บทบรรยายไทย - อังกฤษ]

[Mini-HD] The One Warrior (2011) /ศึกเจ้านักรบผ่าพลังยึดโลก [720p][เสียงอังกฤษ - ไทย][บทบรรยายไทย - อังกฤษ]

{[['']]}

  The One Warrior (2011) /ศึกเจ้านักรบผ่าพลังยึดโลก| 3.42GB

เรื่องย่อ
               สร้างจากวิดีโอเกมส์ฮิต เต็มไปด้วยฉากแอ็คชั่นสุดล้ำ เรื่องราวของยอดนักรบผู้เกิดมาเพื่อล้มอำนาจแห่งดาร์ลอร์ด เขาทุ่มเทฝึกฝนตัวเองจนแข็งแกร่ง ด้วยความช่วยเหลือของเหล่าพันธมิตร พ่อมดฝ่ายดี และนางฟ้าแสยสวยนาม อเธน่า ทั้งหมดฝึกฝนและมอบพลังให้แก่นักรบโดยมีเป้าหมายเดียวก็คือเพื่อล้มล้าง อำนาจชั่วร้ายนี้ลงให้จงได้

General
Unique ID: 234958674360899622825710060558267412690 (0xB0C36508BBE04EE99E0616F54D8F70D2)
Complete name: M.TOW.seed-loadmovie.blogspot.com.mkv
Format : Matroska
Format version : Version 2
File size: 3.42 GiB
Duration : 1h 30mn
Overall bit rate : 5 434 Kbps
Encoded date : UTC 2012-12-12 12:17:51
Writing application: mkvmerge v3.2.0 ('Beginnings') built on Feb 12 2010 16:46:17
Writing library: libebml v0.7.9 + libmatroska v0.8.1

Video
ID : 1
Format : AVC
Format/Info: Advanced Video Codec
Format profile : High@L4.1
Format settings, CABAC : No
Format settings, ReFrames: 3 frames
Codec ID : V_MPEG4/ISO/AVC
Duration : 1h 30mn
Bit rate : 4 400 Kbps
Width: 1 280 pixels
Height : 720 pixels
Display aspect ratio : 16:9
Frame rate mode: Constant
Frame rate : 24.000 fps
Color space: YUV
Chroma subsampling : 4:2:0
Bit depth: 8 bits
Scan type: Progressive
Bits/(Pixel*Frame) : 0.199
Stream size: 2.71 GiB (79%)
Writing library: x264 core 94
Encoding settings: cabac=0 / ref=3 / deblock=1:0:0 / analyse=0x3:0x133 / me=umh / subme=9 / psy=1 / psy_rd=1.00:0.00 / mixed_ref=1 / me_range=24 / chroma_me=0 / trellis=0 / 8x8dct=1 / cqm=0 / deadzone=21,11 / fast_pskip=0 / chroma_qp_offset=-2 / threads=22 / sliced_threads=0 / nr=0 / decimate=1 / interlaced=0 / constrained_intra=0 / bframes=3 / b_pyramid=1 / b_adapt=2 / b_bias=0 / direct=3 / weightb=1 / weightp=2 / keyint=240 / keyint_min=24 / scenecut=40 / intra_refresh=0 / rc_lookahead=40 / rc=abr / mbtree=1 / bitrate=4400 / ratetol=0.2 / qcomp=0.60 / qpmin=10 / qpmax=51 / qpstep=4 / ip_ratio=1.40 / aq=1:1.00
Language : English
Default: Yes
Forced : No

Audio #1
ID : 2
Format : AC-3
Format/Info: Audio Coding 3
Mode extension : CM (complete main)
Format settings, Endianness: Big
Codec ID : A_AC3
Duration : 1h 30mn
Bit rate mode: Constant
Bit rate : 640 Kbps
Channel(s) : 6 channels
Channel positions: Front: L C R, Side: L R, LFE
Sampling rate: 48.0 KHz
Bit depth: 16 bits
Compression mode : Lossy
Stream size: 413 MiB (12%)
Title: AC3
Language : English
Default: Yes
Forced : No

Audio #2
ID : 3
Format : AC-3
Format/Info: Audio Coding 3
Mode extension : CM (complete main)
Format settings, Endianness: Big
Codec ID : A_AC3
Duration : 1h 30mn
Bit rate mode: Constant
Bit rate : 384 Kbps
Channel(s) : 6 channels
Channel positions: Front: L C R, Side: L R, LFE
Sampling rate: 48.0 KHz
Bit depth: 16 bits
Compression mode : Lossy
Stream size: 248 MiB (7%)
Title: AC3 Master
Language : Thai
Default: No
Forced : No

Text #1
ID : 4
Format : VobSub
Muxing mode: zlib
Codec ID : S_VOBSUB
Codec ID/Info: The same subtitle format used on DVDs
Title: A480
Language : Thai
Default: Yes
Forced : No

Text #2
ID : 5
Format : VobSub
Muxing mode: zlib
Codec ID : S_VOBSUB
Codec ID/Info: The same subtitle format used on DVDs
Title: T480
Language : Thai
Default: No
Forced : No

Text #3
ID : 6
Format : UTF-8
Codec ID : S_TEXT/UTF8
Codec ID/Info: UTF-8 Plain Text
Title: Eng
Language : English
Default: No
Forced : No

Text #4
ID : 7
Format : VobSub
Muxing mode: zlib
Codec ID : S_VOBSUB
Codec ID/Info: The same subtitle format used on DVDs
Title: A1080
Language : Thai
Default: No
Forced : No

Text #5
ID : 8
Format : VobSub
Muxing mode: zlib
Codec ID : S_VOBSUB
Codec ID/Info: The same subtitle format used on DVDs
Title: T1080
Language : Thai
Default: No
Forced : No

 
 








 
 
================================================
** ONE2UP โหลดลิงค์อื่นแทนไม่ได้ **
** แบบแบ่ง Part 200MB โหลดแทนกันได้ **
 -- Winrar ใส่ Recovery Record 5% ทุกไฟล์ครับ คลิก --
 ================================================ 
Share this article :

แสดงความคิดเห็น

Popular Posts

 
Support : Creating Website | Johny Template | Mas Template
Copyright © 2011. load-one2up โหลดหนัง - All Rights Reserved
Template Created by Creating Website Published by Mas Template
Proudly powered by Blogger